Бэмби 2 скачать торрент

Уважаемый гость, на данной странице Вам доступен материал по теме: Бэмби 2 скачать торрент. Скачивание возможно на компьютер и телефон через торрент, а также сервер загрузок по ссылке ниже. Рекомендуем также другие статьи из категории «Книги».

Бэмби 2 скачать торрент.rar
Закачек 2351
Средняя скорость 7005 Kb/s
Скачать

Бэмби 2

Жанр: Драма, Мультфильм, Семейный

Год выхода: 2006

Страна: США

Оригинальное название: Bambi II

Возраст: для любой зрительской аудитории

Продолжительность: 74 мин. / 01:14

Остальные части мультфильма «Бэмби»:

Скачать мультфильм «Бэмби 2» через торрент бесплатно

Бэмби 2 / Bambi II (2006) BDRip 720p от HQ-ViDEO .torrent [Информация о файле (нажмите для просмотра)]

Перевод: Русский дублированный перевод + Оригинальная дорожка

Субтитры: Русские, Английские.

Качество: 720p (Исходник: Blu-ray)

Видео: MPEG-4 AVC, x264, 1 276 x 720 (16:9); 23.976 fps;

4500 kbps; 0.204 bit/pixel

Аудио #1: 48 kHz, AC3 Dolby Digital, 3/2 (L,C,R,l,r) + LFE ch,

Аудио #2: 48 kHz, AC3 Dolby Digital, 3/2 (L,C,R,l,r) + LFE ch,

Бэмби 2 / Bambi II (2006) BDRip 1080p от Freeisland .torrent [Информация о файле (нажмите для просмотра)]

Перевод: Профессиональный (дублированный)

Субтитры: Russian (UTF-8)

Видео: 1920×1080 (16:9), 23.976 fps, AVC, 7 628 Kbps

Аудио #1: AC3, 640 Kbps, 48.0 KHz, 6 ch (RUS Dub — СЕЕ)

Аудио #2: AC3, 384 Kbps, 48.0 KHz, 6 ch (Engl)

Бэмби 2 / Bambi II (2006) BDRip-AVC | iPad .torrent [Информация о файле (нажмите для просмотра)]

Субтитры: русские, английские

Формат: MP4 (контейнер m4v)

Видео: AVC, High@L4.1, 1024×576 (16:9) at 23.976 fps, AVC at 1651 kbps avg, 0.117 bit/pixel

Аудио: 48 kHz, AAC, 2ch,

160 kbps | Russian | Дублированный

Аудио: 48 kHz, AAC, 2ch,

192 Kbps | English | Original

Бэмби 2 / Bambi II (2006) BDRip 1080p от KinoZalSat .torrent [Информация о файле (нажмите для просмотра)]

Качество: BDRip (1080p)

Видео: MPEG-4 AVC, 6500 Кбит/с, 1920×1080

Аудио №1: AC3, 6 ch, 448 Кбит/с (Дублированный)

Аудио №2: DTS-HD МА, 6 ch, 4546 Кбит/с (Английский)

Бэмби 2 / Bambi 2 (2006) BDRip 720p от Freeisland .torrent [Информация о файле (нажмите для просмотра)]

Перевод: Дублированный ,Профессиональный многоголосый + Английская дорожка

Качество: BDRip 720p

Видео: 1280×720 ,6987 Кбит/сек,23,976 кадр/сек,0.316 bit/pixel

Звук: АС-3,384 Кбит/сек,6 канала(ов),48,0 КГц АС-3,640 Кбит/сек,6 канала(ов),48,0 КГц АС-3,640 Кбит/сек,6 канала(ов),48,0 КГц

Видео: Идентификатор : 1 Формат : AVC Формат/Информация : Advanced Video Codec Профиль формата : High@L5.0 Параметр CABAC формата : Да Параметр ReFrames формата : 16 кадры Идентификатор кодека : V_MPEG4/ISO/AVC Продолжительность : 1 ч. 12 м. Битрейт : 6987 Кбит/сек Ширина : 1280 пикс. Высота : 720 пикс. Соотношение сторон : 16:9 Частота кадров : 23,976 кадр/сек Цветовое пространство : YUV Подвыборка цветности : 4:2:0 Битовая глубина : 8 бит Тип развёртки : Прогрессивная Бит/(Пиксели*Кадры) : 0.316 Размер потока : 3,45 Гбайт (79%) Заголовок : Freeisland Библиотека кодирования : x264 core 114 r1913 5fd3dce Настройки программы : cabac=1 / ref=16 / deblock=1:1:1 / analyse=0x3:0x113 / me=umh / subme=7 / psy=1 / psy_rd=0.40:0.00 / mixed_ref=1 / me_range=32 / chroma_me=1 / trellis=1 / 8x8dct=1 / cqm=0 / deadzone=21,11 / fast_pskip=1 / chroma_qp_offset=-2 / threads=6 / sliced_threads=0 / nr=0 / decimate=1 / interlaced=0 / constrained_intra=0 / bframes=10 / b_pyramid=2 / b_adapt=2 / b_bias=0 / direct=3 / weightb=1 / open_gop=0 / weightp=2 / keyint=250 / keyint_min=23 / scenecut=40 / intra_refresh=0 / rc_lookahead=50 / rc=2pass / mbtree=1 / bitrate=6987 / ratetol=1.0 / qcomp=0.60 / qpmin=0 / qpmax=69 / qpstep=4 / cplxblur=20.0 / qblur=0.5 / ip_ratio=1.40 / aq=1:0.60 Язык : English

Аудио #1: Идентификатор : 2 Формат : AC-3 Формат/Информация : Audio Coding 3 Расширение режима : CM (complete main) Идентификатор кодека : A_AC3 Продолжительность : 1 ч. 12 м. Вид битрейта : Постоянный Битрейт : 384 Кбит/сек Канал(ы) : 6 канала(ов) Расположение каналов : Front: L C R, Side: L R, LFE Частота : 48,0 КГц Битовая глубина : 16 бит Метод сжатия : С потерями Размер потока : 199 Мбайт (4%) Язык : Russian

Аудио #2: Идентификатор : 3 Формат : AC-3 Формат/Информация : Audio Coding 3 Расширение режима : CM (complete main) Идентификатор кодека : A_AC3 Продолжительность : 1 ч. 12 м. Вид битрейта : Постоянный Битрейт : 640 Кбит/сек Канал(ы) : 6 канала(ов) Расположение каналов : Front: L C R, Side: L R, LFE Частота : 48,0 КГц Битовая глубина : 16 бит Метод сжатия : С потерями Размер потока : 331 Мбайт (7%) Язык : Russian

Аудио #3: Идентификатор : 4 Формат : AC-3 Формат/Информация : Audio Coding 3 Расширение режима : CM (complete main) Идентификатор кодека : A_AC3 Продолжительность : 1 ч. 12 м. Вид битрейта : Постоянный Битрейт : 640 Кбит/сек Канал(ы) : 6 канала(ов) Расположение каналов : Front: L C R, Side: L R, LFE Частота : 48,0 КГц Битовая глубина : 16 бит Метод сжатия : С потерями Размер потока : 331 Мбайт (7%) Язык : English

Бемби 2 / Бэмби 2 / Bambi II (2006) BDRip от HQCLUB .torrent [Информация о файле (нажмите для просмотра)]

Перевод: Профессиональный (полное дублирование) + Оригинальная звуковая дорожка +Профессиональный (многоголосый, закадровый)

Субтитры: Русские, английские(внешние srt*)

Качество: BDRip (источник / Blu-ray Remux / 1080p)

Видео: 704×400 (1.76:1), 23,976 fps, XviD build 57

2029 kbps avg, 0.30 bit/pixel

Аудио #1: 48 kHz, AC3 Dolby Digital, 3/2 (L,C,R,l,r) + LFE ch,

Аудио #2: 48 kHz, AC3 Dolby Digital, 3/2 (L,C,R,l,r) + LFE ch,

Аудио #3: 48 kHz, AC3 Dolby Digital, 3/2 (L,C,R,l,r) + LFE ch,

384.00 kbps avg(отдельно Narod.Ru)

Бэмби 2 / Bambi 2 (2006) DVDRip от PlanetaUA .torrent [Информация о файле (нажмите для просмотра)]

Видео: DivX 5 720×400 25.00fps 2430Kbps

Аудио: AC3 48000Hz 6ch 384Kbps

Перевод: профессиональный многоголосный

Видео: 720×416 (1.73:1), 23.976 fps, 1217 kbps avg, 0.17 bit/pixel

Скачать фильм Бэмби 2 (2006) через торрент. На этом данная статья подошла к завершению. Следите за обновлениями на нашем сайте. Получить дополнительную информацию, а также задать свои вопросы можно в комментариях.


Статьи по теме