Рожденная Свободной скачать торрент

Уважаемый гость, на данной странице Вам доступен материал по теме: Рожденная Свободной скачать торрент. Скачивание возможно на компьютер и телефон через торрент, а также сервер загрузок по ссылке ниже. Рекомендуем также другие статьи из категории «Методички».

Рождённая свободной

Добавлен: 12 май 2014

Размер: 1002.51 МБ

Поблагодарили: 0 раз

Добавлено: 12 май 2014

Стаж: 4 года 2 месяца 15 дней

Спасибо: 11618 / 10

Перевод: Профессиональный (двухголосый, закадровый)

cубтитры: русские, английские

Формат: DVDRip, MKV, H.264, MP3

Страна: США Великобритания

Описание: Фильм был снят в Африканской саванне по одноименному бестселлеру известной писательницы и натуралиста Джой Адамсон.

Картина рассказывает о судьбе львицы Эльсы, еще детенышем попавшей к супругам Адамсон. Они не только спасают малышку от неминуемой гибели, но и, вырастив ее, возвращают назад в дикую природу потому, что она была рождена свободной.

Авторам удалось превосходно запечатлеть и передать с помощью средств кино красоту природы и животного мира Кении.

1085 Kbps avg, 0.22 bit/pixel

Аудио#1: русский 44.1 KHz, MPEG Layer 3 2/0 (L, R) ch,

192 Kbps avg [Профессиональный (двухголосый, закадровый)]

Аудио#2: английский 48,0 KHz, AC-3, 2/0 (L, R) ch,

192 Kbps avg [оригинал]

Доп. информация: Фильм с большим успехом шел в кинопрокате СССР.

«Оскар» — 1966 год.

Победитель в категориях:

1 — Лучшая музыка (Джон Бэрри), 2 — Лучшая песня (Джон Бэрри, Дон Блэк «Born Free»).

Уникальный идентификатор : 176572429714016509109912152107485622440 (0x84D69CEBDC4099EA85BEDA0A9581F0A8)

Полное имя : D:\Загрузки\Rozhdennaya_svobodnoj.mkv

Размер файла : 1003 Мбайт

Продолжительность : 1 ч. 35 м.

Общий поток : 1473 Кбит/сек

Название фильма : BORN FREE (DVDRip by BIGCATS.RU)

Дата кодирования : UTC 2009-05-01 22:45:14

Программа кодирования : mkvmerge v2.4.0 (‘Fumbling Towards Ecstasy’) built on Oct 11 2008 20:13:15

Библиотека кодирования : libebml v0.7.7 + libmatroska v0.8.1

Формат/Информация : Advanced Video Codec

Параметр CABAC формата : Да

Параметр ReFrames формата : 1 кадр

Идентификатор кодека : V_MPEG4/ISO/AVC

Продолжительность : 1 ч. 35 м.

Битрейт : 1085 Кбит/сек

Ширина : 704 пикс.

Высота : 292 пикс.

Соотношение сторон : 2,40:1

Частота кадров : 23,976 кадр/сек

Цветовое пространство : YUV

Подвыборка цветности : 4:2:0

Битовая глубина : 8 бит

Тип развёртки : Прогрессивная

Размер потока : 721 Мбайт (72%)

Заголовок : DVDRip-AVC by bigcats.ru

Библиотека кодирования : x264 core 67 r1139kVAQmod 1024283

Настройки программы : cabac=1 / ref=1 / deblock=1:0:0 / analyse=0x3:0x13 / me=umh / subme=7 / psy_rd=0.0:0.0 / mixed_ref=0 / me_range=16 / chroma_me=1 / trellis=1 / 8x8dct=1 / cqm=0 / deadzone=21,11 / chroma_qp_offset=0 / threads=1 / thread_queue=1 / nr=0 / decimate=1 / mbaff=0 / bframes=0 / keyint=250 / keyint_min=25 / scenecut=40 / rc=2pass / bitrate=1085 / ratetol=1.0 / qcomp=0.60 / qpmin=10 / qpmax=51 / qpstep=4 / cplxblur=20.0 / qblur=0.5 / ip_ratio=1.40 / aq=1:1.00:0:10.00:1.00:1.00:1.00

Формат : MPEG Audio

Версия формата : Version 1

Профиль формата : Layer 3

Режим : Joint stereo

Расширение режима : MS Stereo

Идентификатор кодека : A_MPEG/L3

Идентификатор кодека/Подсказка : MP3

Продолжительность : 1 ч. 35 м.

Вид битрейта : Постоянный

Битрейт : 192 Кбит/сек

Канал(ы) : 2 канала(ов)

Частота : 44,1 КГц

Метод сжатия : С потерями

Размер потока : 131 Мбайт (13%)

Заголовок : Rus from VHS

Формат/Информация : Audio Coding 3

Расширение режима : CM (complete main)

Идентификатор кодека : A_AC3

Продолжительность : 1 ч. 35 м.

Вид битрейта : Постоянный

Битрейт : 192 Кбит/сек

Канал(ы) : 2 канала(ов)

Расположение каналов : Front: L R

Частота : 48,0 КГц

Битовая глубина : 16 бит

Метод сжатия : С потерями

Размер потока : 131 Мбайт (13%)

Заголовок : Eng from DVD

Идентификатор кодека : S_TEXT/UTF8

Идентификатор кодека/Информация : UTF-8 Plain Text

Идентификатор кодека : S_TEXT/UTF8

Идентификатор кодека/Информация : UTF-8 Plain Text

Рождённая свободной. На этом данная статья подошла к завершению. Следите за обновлениями на нашем сайте. Получить дополнительную информацию, а также задать свои вопросы можно в комментариях.


Статьи по теме